Nightcrawler 2014

720p.HC.HDRip

720p-1080p.WEB-DL.BrRip

When Lou Bloom, a driven man desperate for work, muscles into the world of L.A. crime journalism, he blurs the line between observer and participant to become the star of his own story. Aiding him in his effort is Nina, a TV-news veteran…


 

Nightcrawler.2014.720p.WEB-DL.2CH.x265.HEVC-PSA

Info

General
Format : Matroska
File size : 452 MiB
Duration : 1h 58mn 01sc
Source : Nightcrawler.2014.1080p.WEB-DL.DD5.1.H264-S4NS (3.47GB)

Video
Format : HEVC
Format/Info : High Efficiency Video Coding
Width : 1 280 pixels
Height : 528 pixels
Display aspect ratio : 2.40:1
Frame rate mode : Constant
Frame rate : 23.976 fps
Color space : YUV
Chroma subsampling : 4:2:0
Bit depth : 8 bits

Audio
Format : AAC
Format/Info : Advanced Audio Codec
Channel(s) : 2 channels
Channel positions : Front: L R
Sampling rate : 48.0 KHz / 24.0 KHz
Compression mode : Lossy
Title : Stereo
Language : English

Format : UTF-8
Codec ID/Info : UTF-8 Plain Text
Default : Yes
Forced : No

[collapse]

Download

Torrent TORRENT

Size: 451 MB

[collapse]

 

Nightcrawler.2014.1080p.WEB-DL.DD5.1.x265.HEVC-PSA

Info

General
Format : Matroska
File size : 1.38 GiB
Duration : 1h 58mn 01sc
Source : Nightcrawler.2014.1080p.WEB-DL.DD5.1.H264-S4NS (3.47GB)

Video
Format : HEVC
Format/Info : High Efficiency Video Coding
Width : 1 916 pixels
Height : 796 pixels
Display aspect ratio : 2.40:1
Frame rate mode : Constant
Frame rate : 23.976 fps
Color space : YUV
Chroma subsampling : 4:2:0
Bit depth : 8 bits
Bits/(Pixel*Frame) : 0.034
Stream size : 1.03 GiB (75%)

Audio
Format : AC-3
Format/Info : Audio Coding 3
Mode extension : CM (complete main)
Format settings, Endianness : Big
Codec ID : A_AC3
Bit rate mode : Constant
Bit rate : 384 Kbps
Channel(s) : 6 channels
Channel positions : Front: L C R, Side: L R, LFE
Sampling rate : 48.0 KHz
Bit depth : 16 bits
Compression mode : Lossy
Stream size : 324 MiB (23%)
Title : Surround
Language : English

Text
Format : UTF-8
Codec ID/Info : UTF-8 Plain Text
Default : Yes
Forced : No

[collapse]

Download

Torrent TORRENT

Size: 1.37 GB

[collapse]


Nightcrawler.2014.720p.BrRip.2CH.x265.HEVC-PSA

Info

General
Format : Matroska
File size : 470 MiB
Duration : 1h 58mn 05sc
Source : Nightcrawler.2014.1080p.BluRay.x264-SPARKS | 8.74 GB

Video
Format : HEVC
Format/Info : High Efficiency Video Coding
Width : 1 280 pixels
Height : 536 pixels
Display aspect ratio : 2.40:1
Frame rate mode : Constant
Frame rate : 23.976 fps
Color space : YUV
Chroma subsampling : 4:2:0
Bit depth : 8 bits

Audio
Format : AAC
Format/Info : Advanced Audio Codec
Channel(s) : 2 channels
Channel positions : Front: L R
Sampling rate : 48.0 KHz / 24.0 KHz
Compression mode : Lossy
Title : Stereo
Language : English

Text
Format : UTF-8
Codec ID/Info : UTF-8 Plain Text
Default : Yes
Forced : No

[collapse]

Download

Torrent TORRENT

Size: 469 MB

[collapse]

 

Nightcrawler.2014.1080p.BrRip.6CH.x265.HEVC-PSA

Info

General
Format : Matroska
File size : 1.44 GiB
Duration : 1h 58mn 05sc
Source : Nightcrawler.2014.1080p.BluRay.x264-SPARKS | 8.74GB

Video
Format : HEVC
Format/Info : High Efficiency Video Coding
Width : 1 920 pixels
Height : 800 pixels
Display aspect ratio : 2.40:1
Frame rate mode : Constant
Frame rate : 23.976 fps
Color space : YUV
Chroma subsampling : 4:2:0
Bit depth : 8 bits

Audio
Format : AAC
Format/Info : Advanced Audio Codec
Channel(s) : 6 channels
Channel positions : Front: L C R, Side: L R, LFE
Sampling rate : 48.0 KHz / 24.0 KHz
Compression mode : Lossy
Title : Surround
Language : English

Text
Format : UTF-8
Codec ID/Info : UTF-8 Plain Text
Default : Yes
Forced : No

[collapse]

Download

Torrent TORRENT

Size: 1.44 GB

[collapse]

 

DTS Audio file

Download

Size:1.13 GB

[collapse]

You may also like...

1
Leave a Reply

Please Login to comment
1 Comment threads
0 Thread replies
0 Followers
 
Most reacted comment
Hottest comment thread
1 Comment authors
movieliver84 Recent comment authors
newest oldest
movieliver84
Member
movieliver84

1080p 10 bit of this movie.